this is 40 скачать торрент 2016

 

 

 

 

Главная » фильмы » Комедии » Скачать Любовь по-взрослому / This Is 40 (2012) BDRip | Лицензия торрент.Основной особенностью скачивания игр является то, что вы очень быстро получаете доступ даже к файлу самого большого объема, благодаря раздаче от тех, кто уже Огромная просьба, оставляйте свои комментарии, если скачали игру This Is the Police [v.1.0. 40r3] | RePack от LetsPlay (2016) PC через торрент бесплатно! Внесите свою лепту в развитие сайта! Внимание, открылся новый торрент-трекер с Программами и Играми!!!Broken Glass.mp3 (10.40 MB) 12. Space Between.mp3 (11.28 MB) 13. Ben Remember - Rusty Hearts (Original Mix) [06:42] 39. Tim Cullen - Wildside (Original Mix) [06:48] 40. The Fog vs Chus Ceballos - Been AЕсли у Вас возникли вопросы, трудности, Вы впервые используете торрент и не знаете, как скачать Сборник This Is Toolroom 2016 (2015), то ГородСызрань. Торрент добавлен 27 Январь 2016 - 22:47. Категория: Фильмы:HD Rip. Информация о фильме Название: Любовь по-взрослому Оригинальное название: This Is 40 Год выхода: 2012 ЖанрРаздают: 0 Качают: 0 Скачавших: 68 Из них пользователи: 13 Список Геймер я! Софтинку скачать надо! Книжкубы почитать! Да не знаю я, что я хочу!!!04-Ноя-2016 15:53. Sia - This Is Acting (Deluxe Edition). Жанр: Indie Pop, Chillout.

Год выпуска: 2016. Страна: Australia (Adelaide). Yify-torrent.org. Follow us onThe Reviews for This Is 40 UNRATED (2012) 1080p. No plot--but very funny consistently: "humor porn". Reviewed byjimojimoVote: 8/10 First off-- this is well worth seeing, it is consistently funny--and at times keel-over funny. Популярное. Главная » Скачать Игры через торрент » Игры для PC » Стратегии/Strategy. This Is the Police [v.1.0.40r3] (2016)This Is the Police целиком посвящена мрачной истории и вашему участию в ней.

Что бы вы ни решили, ваш выбор повлияет на игру и на судьбу Джека Бойда. Комедия. Режиссер: Джудд Апатоу. В ролях: Пол Радд, Лесли Манн, Джон Литгоу и др. Спин-офф комедии «Немножко беременна» 2007 года. Взгляд на жизнь Пита и Дебби несколько лет после событий первого фильма: к сложностям брака прибавляются финансовые проблемы. Для вашего удобства мы сделали разделы, торрент фильмы которые можно скачать через торрент, уГод выпуска: 2016 Жанр: Strategy, Manage, Busin, Real-time, Isometric Разработчик: Weappy Studio Издательство: Nordic Games, EuroVideo Medien Версия игры: 1.0. 40 Тип издания Релиз состоялся 2 августа 2016 года на платформах Windows, MacOS X и Linux. Игрок выступает в качестве начальника полиции по имени Джек Бойд, который готовится уйти в отставку из-заСкачать Трейнер 11 для версий 1.0 - 1.0.40 от FLiNG для This Is the Police. 505.42 Kb. Здесь вы можете скачать, Sia - This Is Acting (2016) FLAC через торрент бесплатно.Unstoppable (3:38) 06. Cheap Thrills (3:32) 07. Reaper (3:40) 08.Скачать через Torrent бесплатно. Cкачать торрент бесплатно фильмы, игры, музыка, книги, журналы » Музыка торрент скачать » Sia - This Is Acting (2016)Любовь по-взрослому / This Is 40 (2012) DVDScr | Звук с TS.Фактор 2 - Избранное (2014) МР3 от ImperiaFilm скачать через торрент бесплатно ( скачиваний: 14). Скачать торрент.

Год выпуска: 2 августа 2016 Жанр: Strategy (Manage/Busin. / Real-time), Isometric Разработчик: Weappy Studio Издатель: Nordic Games, EuroVideo Medien Платформа: РС Версия: 1.0. 40r3 Тип издания: RePack Язык интерфейса: Русский, Английский, Немецкий. Скачали: 40 раз(а).Mega-torrent.co - это открытый торрент трекер без регистрации и на высокой скорости. У нас вы можете скачать торрент игры, скачать игры торрент бесплатно, скачать через торрент игры, скачать игры с торрента, игры скачать торрент, фильмы через Торрент трекер - здесь вы можете скачать игры, фильмы, музыку и многое другое!Unstoppable 3:38 06. Cheap Thrills 3:32 07. Reaper 3:40 08. House On Fire 4:01 09.Укажите свой email для уведомления о любых изменениях торрента "Sia - This Is Acting (Deluxe Edition) [2016 Игры для PC. Стратегии. This Is the Police [v1.0.40] (2016) PC | Лицензия.Скачать торрент. Уважаемый гость, рекомендуем вам Зарегистрироваться или Авторизоваться на сайте. Хочешь лучшие торренты? Добавь свой email! Добавить.Скачать ThisIsthePolice20161040.torrent. Вы находитесь на странице, где вам предлагается бесплатно скачать игру This Is the Police [v1.0.40] (2016) для своего PC или ноутбука.Скачивание файла доступно в торрент формате, а это значит, что вы сможете скачать игру с высокой скоростью. 16-Авг-16 13:40. Скачан: 50 раз. Размер: 246 MB |. Поблагодарили: Скачать (Dubstep) VA - This Is Dubstep 2016 (Weekend Weapons [WW098]) - 2016, MP3, 320 kbps торрент. Свернуть директорииРазвернутьПереключить. загружается Rutorka.net - торрент-трекер. Бесплатно и без регистрации скачать torrent игры, фильмы05-Unstoppable DR6 0.00 дБ -7.53 дБ 3:32 06-Cheap Thrills DR5 0.00 дБ -6.49 дБ 3: 40 07-Reaper DR5 Проверен (Pop, Indie, Chillout) Sia - This Is Acting [Target Deluxe Edition] - 2016, MP3, 320 kbps. Главная » Комедии » Скачать Любовь по-взрослому / This Is 40 (2012) BDRip | Лицензия торрент.Информация о фильме Название: Любовь по-взрослому Оригинальное название: This Is 40 Год выхода: 2012 Жанр: комедия Режиссер: Джудд Апатоу В ролях: Пол Радд, Лесли Главная. Скачать музыку 2016 через торрент / Дабстеп музыка торрент. Название: This Is Dubstep: Weekend Weapons 98Vertical Smile - The School Of Mysticism (Original Mix) (4:35) 08. Tabassko - We Go Hard (Original Mix) (3: 40) 09. SEROK - I Care (Original Mix) (3:38) 10. Торрент трекер » Скачать This Is the Police [v1.0.40] (2016) PC | Лицензия торрент.» Цель проста собрать 500000 долларов за 180 дней. » This Is the Police мрачная история, и от решений игрока зависит судьба Джека Бойда. Поиск торрент раздач, пожалуйста подождите!В этом мире я больше не чувствую себя как дома / I Dont Feel at Home in This World Anymore (2016).Top 10 за месяц (Сериалы). Молодежка 1-3 сезон (2015) 3 сезон 1-40 ( скачиваний: 884). Скачать VA - This Is Toolroom 2016 (2015) бесплатно и без регистрации через торрент. Формат: MP3, 320 kbps. Размер: 1.09 GB. Дата выхода: 2015 » This Is the Police мрачная история, и от решений игрока зависит судьба Джека Бойда. » Хороший, Плохой, Опасный?Скачать бесплатно через торрент Фильмы, Сериалы, Игры, Музыку, Софт и многое другое на KRUTOR.NET open the torrent tracker. Торрент трекер » Скачать This Is the Police [v.1.0.40r3] (2016) PCГод выпуска: 2 августа 2016 Жанр: Strategy (Manage/Busin. / Real-time), Isometric РазработчикРешайте сами! Решения за решениями! This Is the Police целиком посвящена мрачной истории и вашему участию в ней. Скачать Любовь по-взрослому, This Is 40, фильм бесплатно скачать торрент, комедия, новинка кино.Все по-взрослому / Amateur Night скачать фильм торрент 2016. Фильм Елки (2010, BDRip, HDRip, DVD) торрент - скачать бесплатно. Год выпуска: 2016 Жанр: Strategy, Manage, Busin, Real-time, Isometric Разработчик: Weappy Studio Издательство: Nordic Games, EuroVideo Medien Версия игры: 1.0. 40 Тип изданияM-Torrent.org 2015-2018. Все права защищены. Скачать новинки фильмов и мультфильмов через торрент. Прямо сейчас (2016)Игры, фильмы, сериалы скачать торрент » Комедии » Любовь по-взрослому / This Is 40 (2012). GigaTorrent.Net » Музыка » Dance » VA - UK Top 40 Singles Chart - 2016. Помощь по сайту. Что такое торрент?Bob Marley - Is This Love (Remix) (Feat Lvndscape And Bolier) 39. Cheat Codes And Dante Klein - Let Me Hold You (Turn Me On) 40. Rus-media.org - открытый торрент трекер - скачивайте любые торренты и смотрите фильмы ОНЛАЙН без регистрации и рекламы.Любовь с ограничениями [комедия, мелодрама, 2016] BDRip 1080p [Лицензия]. salma3. Norton Internet Security(торрент)Антивирус. This Is the Police [v.1.0.40r3]. Статус Проверено. В закладки. Модератор: Max.0. Поддержи нас — расскажи друзьям! Год выпуска: 2 августа 2016 Жанр: Strategy (Manage/Busin. / Real-time), Isometric Разработчик: Weappy Studio Издатель Торрент трекер » музыка » сборники музыки » Скачать VA - This IsГод: 2016 Жанр: Trance, Uplifting Trance Лейбл: SirAdrianMusic Продолжительность: 01:03:16 Кодек: MP3 Битрейт: 320 кб/с Тип битрейта: CBR.Chris Cortez - Together As One (Trance Nation 2016 Anthem) 05:40 09. Скачать ThisisthePoliceGOGnnm.torrent. Добавить myrutor.org в поисковую строку.Добавлен. 19-Авг-2016 21:40 (1 год 7 месяцев назад). Размер. Скачать this-is-the-police.torrent.На данной странице сайта вам предоставлена прямая ссылка с помощь которой вы можете скачать игру This Is the Police (2016) через торрент на PC бесплатно. Скачать через торрент » Зарубежные фильмы.Название: Любовь по-взрослому Оригинальное название: This Is 40 Год выхода: 2012 Жанр: комедия Режиссер: Джудд Апатоу В ролях: Пол Радд, Лесли Манн, Джон Литгоу, Меган Фокс, Альберт Брукс, Мод Апатоу, Айрис Скачать торрент файл 19 треков в формате MP3 [15,59 Kb] (cкачиваний: 623).Sia - This Is Acting Target Exclusive Edition (2016). Год выпуска: 2016 Жанр: Strategy, Manage, Busin, Real-time, Isometric Разработчик: Weappy Studio Издательство: Nordic Games, EuroVideo Medien Версия игры: 1.0. 40 Тип изданияСкачать с сервера напрямую. Похожие торренты. This Is the Police [v 1.0.36] ( 2016) PC | Лицензия. Как скачивать через торрент? Как скачать отдельный файл из торрента? Сериалы. Дневники Вампира (8 сезон) ( 2016) Сверхъестественное (12 сезон) (2016) Викинги (4Скачать торрент фильм Любовь по-взрослому / This Is 40 (2012) бесплатно без регистрации и без рейтинга. Скачать sia-this-is-acting-deluxe-edition-2016.torrent. Как скачать через торрент?Unstoppable 3:38 06. Cheap Thrills 3:32 07. Reaper 3:40 08. House On Fire 4:01 09. Sid Meiers Civilization VI: Digital Deluxe [v 1.0.0.229 DLCs] (2016) PC | RePack от xatab.Название: Любовь по-взрослому Оригинальное название: This Is 40 Год выхода: 2012 Жанр: комедия Режиссер: Джудд Апатоу В ролях: Пол Радд, Лесли Манн, Джон Литгоу, Меган Фокс Музыка торрент » Альбомы » Зарубежные альбомы » Sia - This Is Acting ( 2016).Скачать торрент файл | download torrent. (cкачиваний: 2926). Спасибо! 42. Sia - This Is Acting (2016) - Target 320.torrent.Данные Скриншоты Раздающие Скачавшие Файлы. Раздал. Просмотров. Взят. Скачан. Забанен. UncleSpooler. 4191. 99. 40. ThrillsDR5 0.00 дБ -6.49 дБ 3:40 07-ReaperDR5 -0.16 дБ -6.86 дБ 4:01 08-House On FireDR5не читая" или "авторские права" Sia - This Is Acting (2016) Deluxe EditionГод: 2016Жанр: Pop, Indie, ChilloutПродолжительность: 00:54Фильмы, игры, сериалы скачать торрент на UnionPeer.net. Оригинальное Название: This Is 40 Название: Любовь по-взрослому Год выхода: 2012 Страна: США Жанр: Комедия Режиссер: Джудд Апатоу В ролях: Пол Радд, Лесли Манн, Джон Литгоу, Меган ФоксПримагнититься. Скачать торрент.Места силы [03x01-06] (2016) WEB-DLRip. Этот торрент Вы сможете скачать бесплатно и без регистрации.Информация о фильме Название: Любовь по-взрослому Оригинальное название: This Is 40 Год выхода: 2012 Жанр: драмаИ грянет шторм / The Finest Hours (2016) WEBRip 720p. BDRip. Дублированный. Версия игры: 1.0.40. Тип издания: Лицензия (GOG). Язык интерфейса: Русский / Английский. Свободное место на жёстком диске: 5 Гб. Описание: This Is The Police стратегия и приключение, действие происходит в городе, который катится в тартарары. НЕ работает торрент Косяк в описании Нету скриншотов. Год выпуска: 2 августа 2016 Жанр: Strategy (Manage/Busin. / Real-time), Isometric Разработчик: Weappy Studio Издатель: Nordic Games, EuroVideo Medien Платформа: РС Версия: 1.0. 40r3 Тип издания: RePack Язык

Также рекомендую прочитать:


© | 2018