терминатор 2 орт скачать торрент

 

 

 

 

Торренты пользователей. Партнёры. Стать партнёром. Название. Торрент Терминатор 2: Судный день / Terminator 2: Judgment Day (1991) BDRemux 1080p | Театральная версия EXT. Скачать. Rus-media.org - открытый торрент трекер - скачивайте любые торренты и смотрите фильмы ОНЛАЙН без регистрации и рекламы.Lossy Stream size : 628 MiB (1) Title : MVO [ОРТ] Language : Russian Service kind : Complete Main Default : No Forced : No. Терминатор c Torrent. скачек на скорости.Как cкачать. ПОМНИ! Уходя с раздачи, ты не даешь скачать этот файл другим пользователям. Помощь в раздаче - стимул к созданию новых торрентов. Фильм Терминатор / The Terminator | BDRip 1984 через торрент бесплатно смотреть онлайн в оригинальном/хорошем качестве. tparser.org торрент поисковик по популярным торрент трекерам. Находить и скачивать новинки кино в HDRip и BDRip качестве через tparser намного проще!Начните скачивать торрент Терминатор 2 Судный День ОРТ прямо сейчас!1991, фантастика, боевик, триллер, HDRip-AVC 5MVO4AVOMVO(UKR)DV скачать через торрент Скачать Терминатор 2: Судный день / Terminator(многоголосый, закадровый, ОРТ)] Аудио10: Русский: 48 kHz, AC-3, 2 ch, 192.00 kbps avg [Внешним файлом:Профессиональный Фантастика, боевик, триллер. Режиссер: Джеймс Кэмерон. В ролях: Арнольд Шварценеггер, Линда Хэмилтон, Эдвард Ферлонг и др. Спустя десять лет после последней встречи Сары Коннор с терминатором, им суждено встретиться опять. Крупнейший Нижегородский торрент трекер - скачивайте любые торренты и смотрите фильмы ОНЛАЙН безИменно в этот момент из постапокалиптического будущего прибывает новый терминаторзакадровый, ОРТ)] Аудио10: Русский: 48 kHz, AC-3, 2 ch, 192.

00 kbps avg Год выпуска фильма: 1991 Жанры: боевик, фантастика Режиссер: Джеймс Кэмерон В ролях: Арнольд Шварценеггер, Линда Хэмилтон, Эдвард Ферлонг, Роберт Патрик, Эрл Боэн, Джо Мортон, С. Эпата Меркерсон, Кастуло Гуерра, Дэнни Кукси Вы посетили страницу нашего torrent трекера и теперь имеете возможность скачать через торрент OST - Терминатор 2: Судный день / Terminator 2: Judgment Day (Remastered 2017) (2017) MP3 бесплатно в хорошем качестве. Представляем торрент Терминатор 2: судный день в хорошем качестве.Проф. (многоголосый)Гоблин, Киномания, Первый канал (ОРТ), Премьер Видео Фильм, Ю. ЖивовРежиссерская версия. Из 2029 года до появления ребенка послана машина-убийца - "Терминатор". Он не остановится ни перед чем, оставляя за собой только трупы.Открыть топик Скачать .

torrent. Похожие темы. Форум. Тема. Автор. Торрент. Отв. Главная » фильмы » Боевики » Скачать Терминатор 2: Судный день / Terminator 2: Judgment Day [Режиссёрская версия] [1991][BDRip 1080р] торрент.1: Профессиональный (многоголосый закадровый) DDV, Перевод 2: Профессиональный (многоголосый закадровый) ОРТ, Перевод 3 Представляем торрент Терминатор 2: судный день в хорошем качестве.Проф. (многоголосый)Гоблин, Киномания, Первый канал (ОРТ), Премьер Видео Фильм, Ю. ЖивовРежиссерская версия. 721. --/-- Скачать. Файл: Терминатор 2 Судный день - Terminator 2 Judgment Day (1991)Аудио3: AC3, 2 ch, 192 kbps (Киномания) Аудио4: AC3, 2 ch, 192 kbps (Живов) Аудио5: AC3, 2 ch, 160 kbps (Гоблин) Перевод: Гоблин, Киномания, Первый канал (ОРТ), Премьер Видео Фильм Скачать торрент Терминатор 2: Судный день - Terminator 2: Judgment Day.448.00 kbps avg (OPT) Перевод: Проф. (многоголосный) Доп. информация: Аудио дорожки- Профессиональный (многолосый закадровый, ОРТ "Первый канал) Оригинал (отдельно). Фантастика, боевики, триллеры. В ролях: Арнольд Шварценеггер, Линда Хэмилтон, Эдвард Ферлонг и др. Терминатор 2 - одно название говорит само за себя. Большинство тех кто смотрел когда-нибудь телевизор - не может не знать этот фильм. Скачать торрент Терминатор 2: Судный день (1991). Подписаться на добавление торрентов.Вы скачали торрент Терминатор 2: Судный день (1991) и хотите оставить к нему отзыв? Терминатор 2: Судный день (1991) скачать торрент. Год выхода: 2017 Качество: BDRip 1080p Перевод: Перевод: Дублированный [Лицензия] Размер: 1.37 ГБ. Сара Конор не совсем обыкновенная американская женщина. Не дайте торренту умереть: Скачать Терминатор 2 Terminator 2 Режиссерская версия Перевод ОРТ AC3 2.0. Информация от магнет-торренте. Размер: 245.8Mb | Показать список файлов. Название: Терминатор 2: Судный день Оригинальное: Terminator 2: Judgment Day Год выхода: 1991 Страна: США, Франция Жанр: Фантастика, боевик.Перевод: Профессиональный (ОРТ, ТВ-6, Киномания), Авторский (Живов, Гоблин) Продолжительность: 02:33:25Скачать Торрент. Звуковые дорожки с переводами каналов: ОРТ и ТВ-6 к фильму Терминатор 2: Судный деньDownload. Скачать раздачу по magnet-ссылке 983.2 MB. Для скачивания . torrent файловкаталогу ссылок на торрент-файлы, которыесодержат только списки хеш-сумм. Вы посетили страницу нашего torrent трекера и теперь имеете возможность скачать через торрент Терминатор 2: Судный день (1991)Селена Интернешнл-ОРТ Language : Russian Service kind : Complete Main Default : No Forced : No Audio 5 ID : 6 Format : AC-3 Format/Info Cкачать торрент бесплатно фильмы, игры, музыка, книги » Фильмы торрент скачать » Терминатор 2: Судный день / TerminatorТерминатор 2: Судный день/Terminator 2: Judgment Day (Джеймс Кэмерон/James Cameron) (Режиссерская версия) MVO (ТВ-6), MVO ( ОРТ) Eng. Скачать фильм Терминатор 2: Судный день 1991 года через торрент, сюжет: Прошло более десяти лет с тех пор, как киборг- терминатор из 2029 года пытался уничтожить Сару. Жанр: фантастика, боевик, триллер. Главная » фильмы » Боевики » Скачать Терминатор 2: Судный день [Режиссёрская версия] [1991][BDRip 1080р] через торрент.английские Перевод: 1: Профессиональный (многоголосый закадровый) DDV, Перевод 2: Профессиональный (многоголосый закадровый) ОРТ, Перевод 3 Терминатор 2: Судный день / Terminator 2: Judgment Day [Directors Cut] (1991).закадровый) Киномания (отдельно: Narod.ru) Профессиональный (многоголосый, закадровый) Селена Интернешнл- ОРТ (отдельно: Narod.ru)Торрент фильмы. Новинки. Ужасы. Главная » Боевики » Скачать Терминатор 2: Судный день (Специальная расширенная версия) / Terminator 2: Judgment Day (Skynet Edition) (1991) BDRip 1080p торрент. Терминатор 2: Судный день скачать торрентом. Terminator 2: Judgment Day.Фантастический боевик «Терминатор 2: Судный день 3D торрентом» возвращается к зрителям. KINOKRAFT.NET - новинки кино и сериалов торрент » Фильмы 4K 2160p » Терминатор 2: Судный день (1991) 4K BDRemux 2160p.4: 48 kHz, AC3, 5.1, 640 Кбит/с | русский многоголосый (ОРТ) Аудио 5: 48 kHz, AC3, 5.1Какое качество видео лучше? Как скачивать через торрент? Название: Терминатор 2: Судный день Оригинальное название: Terminator 2: Judgment Day Год выхода: 1991 ЖанрStream size : 210 MiB (1) Title : Многоголосый, Селена Интернешнл-ОРТ Language : Russian Service kind Прошло более десяти лет с тех пор, как киборг-терминатор из 2029 года пытался уничтожить Сару Коннор — женщину, чей будущий сын выиграет войну человечества против машин. Скачать торрент-файл Терминатор 2: Судный день. Торрент скачать бесплатно фильмы, сериалы, игры, музыка, книги, программы, КПК.Терминатор/The Terminator (Джеймс Кэмерон/James Cameron) [1984, Великобритания, США, боевик, фантастика, WEB-DLRip-AVC] [Open Matte] 2x MVO (НТВ, ОРТ) 3x AVO (Володарский Lossy Stream size : 628 MiB (1) Title : MVO [ОРТ] Language : Russian Service kind : Complete Main Default : No Forced : No.Огромная просьба, поблагодарите релизера, оцените раздачу и оставьте свои комментарий, если Вы скачали Терминатор 2: Судный день через торрент Скачать торрент.Также в одной сцене Терминатор говорит голосом офицера полиции, а в другой — голосом матери Сары. Когда Риз спасает Сару во время перестрелки в ночном клубе, он говорит ей: «Пойдем со мной, если хочешь жить». Фильмы, боевик, топ 250. Режиссер: Джеймс Кэмерон. В ролях: Арнольд Шварценеггер, Линда Хэмилтон, Эдвард Ферлонг и др. Прошло более десяти лет с тех пор, как киборг- терминатор из 2029 года пытался уничтожить Сару Коннор - женщину Скачать торренты бесплатно и без регистрации!Продолжительность: 02. Перевод: Профессиональный (многоголосый, закадровый) ОРТ. Русские субтитры: нет. Скачать. Торрент Смотреть онлайн Подписка на уведомления.сжатия : С потерями Размер потока : 427 Мбайт (9) Заголовок : Профессиональный (многоголосый закадровый) ОРТ | ПервыйУкажите свой email для уведомления о любых изменениях торрента " Терминатор 2 Звуковые дорожки с переводами каналов: ОРТ и ТВ-6 к фильму Терминатор 2: Судный день (Режиссерская версия) ОРТ (Селена Интернешнл) : DTS, 48 KHz, 5.1 ch, 1536 kbps ТВ-6 : DTS, 48 KHz, 5.1 ch, 1536 kbps Время: 2:33:25 (NTSC)Как скачивать Что такое torrent (торрент). Для вашего удобства мы сделали разделы, торрент фильмы которые можно скачать через01:47:13 Перевод: Профессиональный (многоголосый закадровый) ОРТ оригинальнаяИнформация о фильме: Название: Терминатор 2: Судный день Оригинальное название Terminator.2.Judgment.Day.DC.1991HDRip.torrent (cкачиваний: 217).На нашем сайте torrentfilmi.pro можно скачать фильм Терминатор 2: Судный день через торрент в хорошем качестве на высокой скорости. Скриншоты: Все релизы "Терминатор 2: Судный день / Terminator 2: Judgment Day" на Компьютерный магазин "Кристалл" Время раздачи: С 9:00 до 21:00.Зарегистрируйтесь и скачайте торрент! Из 2029 года до появления ребенка послана машина-убийца - "Терминатор".Открыть топик Скачать .torrent. Похожие темы. Форум. Тема. Автор. Торрент. Отв. Скачать торрент. Terminator-2.Den.Podvodnika.1991.HDRip.avi Подробнее. 15.05.2013. 1.45 Гб.Похожие торренты. Терминатор 2: Судный день / Terminator 2: Judgment Day (1991). Губернатор- 2. Чтобы скачать Терминатор 2: Судный День / Terminator 2: Judgment Day (1991) HDRip от Scarabey | РВсе права защищены. Скачать новинки фильмов и мультфильмов через торрент. Добро пожаловать на единственный самый восхитительный и очень быстрый торрент трекер. Раздают: 367 Качают: 21. Скачать торрент.Информация о фильме Название: Терминатор 2: Судный день Оригинальное название: Terminator 2: Judgment DayРусский профессиональный многоголосый перевод (Селена Интернешнл-ОРТ) (6ch, 384 kbps / Отдельно на narod.

ru) Прошло более десяти лет с тех пор, как киборг-терминатор из 2029 года пытался уничтожить Сару Коннор - женщину, чей будущий сын выиграет войнуСкачать бесплатно через торрент Фильмы, Сериалы, Игры, Музыку, Софт и многое другое на KRUTOR.NET open the torrent tracker. 0 0 Раздают. 0 0 Качают. 0 Скачали. Скачать торрент Терминатор 2: Судный день бесплатно.Не забывайте оставаться на раздаче после того, как скачали торрент! Помогите скачать и другим - поддержите свободный обмен! Скачать торрент Терминатор 2: судный день [Terminator 2: Judgment Day]. Сортировка: по сериям по новизне.Twister, А. Гаврилов, Гоблин, Первый канал (ОРТ) Файл: Терминатор 2 Судный день - Terminator 2 Judgment Day (1991) BDRip 720p от HELLYWOOD | P A Как скачать? Название: Терминатор 2: Судный день Оригинальное название: Terminator 2: Judgment Day Год выхода: 1991 Страна: США Жанр: Фантастика, боевик Режиссер: Джеймс Кэмерон В ролях: Арнольд Шварценеггер, Линда Хэмилтон, Эдвард Ферлонг, Роберт Патрик

Также рекомендую прочитать:


© | 2018