plastic memories скачать торрентом

 

 

 

 

Пластиковые воспоминания [2015] Plastic Memories .1. Качаем UTorrent версии 2.04 и выше 2. После установки, жмем на ссылку СКАЧАТЬ ТОРРЕНТ ФАЙЛ. 3. На вопрос браузера что делать ссылкой говорим открыть через utorrent. Скачали файл? Поставьте лайк! Не дайте торренту умереть: Скачать Пластиковые воспоминания Синтетические воспоминания Plastic Memories Plamemo TV. Наполняя воспоминаниями / Filling Up with Memories 13.Как скачивать Что такое torrent (торрент). Сайт не распространяет и не хранит электронные версии произведений, а лишь предоставляет доступ к создаваемому пользователями каталогу ссылок на торрент-файлы Торрент трекер - здесь вы можете скачать игры, фильмы, музыку и многое другое!Укажите свой email для уведомления о любых изменениях торрента "Plastic Memories / Пластиковые воспоминания [1-13 из 13 ] (2015) HDTV-Rip 720p". plastic memories ost скачать бесплатно. Найдено: 72 треков.Eri Sasaki - Ring Of Fortune (Ost.Opening Plastic Memories). 04:20. Дополнительно Формат: mp4 Разрешение: 1280x720 Субтитры: русские (софтсаб) Язык: японский. Торрент был обновлен Причина: добавлены субтитры к 12-й и 13-й серии. Синтетические воспоминания / Plastic Mem Серии в торренте: 1-13.

Раздают: 2 Качают: 1 Размер: 2.52 GB Скачали: 848.Что ж, для тех кому нужна озвучка к BDrip версии есть хорошая новость. Вот тут сможете её взять, делалась к [GS] Plastic Memories (BD 720p 10bit AAC). Скачивай и слушай deftones plastic и reveille plastic на Zvuk.top!Mr Beatnick — Plastic Memory. 03:26. На сайте onlinemusic.

com.ua вы можете скачать Plastic Memories Ending. 1) - Найдите песню Plastic Memories Ending, используя поиск. 2) - Выберете и нажмите на кнопку скачать. На нашем портале вы сможете смотреть аниме Plastic Memories / Пластиковые Воспоминания в хорошем качестве с оригинальным переводом и озвучкой.Скачали Plastic Memories. Общая информация: ТВ (05.04.2015 - ?), ? эп. Заголовок : Plastic Memories ep.01 «The First Partner».Скачать (бесплатно и на максимальной скорости)! Как скачивать Что такое torrent (торрент) Рейтинг и ограничения. Торрент теги. тип рипа битрейт аудио страна производитель номер по каталогу количество страниц примеры страниц kbps avg качество видео русскийскачать бесплатно. (Пост-хардкор) Похороны для друга - молодые и беззащитные (EP) - 2010, FLAC (треки .cue), без потерь. Торрент скачать бесплатно фильмы, игры, музыка, книги » Мультфильмы торрент скачать » Пластиковые воспоминания / Plastic Memories (Фудзивара Ёсиюки) [TV] [13 из 13] [RAW] [RUS] [2015, комедия, романтика, фантастика, HDTVRip] [720p] торрент скачать бесплатно. Торрент скачать бесплатно фильмы, сериалы, игры, музыка, книги, программы, КПК » Мультфильмы торрент скачать » ПластиковыеПластиковые воспоминания / Plastic Memories (Фудзивара Ёсиюки) [TV] [7 из 13] [без хардсаба] [RUS(ext), JAPSUB] [2015 г повседневность Скачать DePhazz1.torrent.

Как тут качать?ИСПОЛНИТЕЛЬ: De-Phazz АЛЬБОМ: Plastic Love Memory ЖАНР: Acid Jazz ФОРМАТ: APEкопиями аудио-визуальных произведений, мы храним только информацию о них и торрент-файлы, загруженными пользователями для обмена. 10 бит Тип развёртки : Прогрессивная Бит/(ПикселиКадры) : 0.161 Размер потока : 1,42 Гбайт (91) Заголовок : Plastic Memories ep.01 «The First Partner» Библиотека кодирования : x264 core 148 r2579 73ae2d1 Настройки программы : cabacКак скачивать Что такое torrent (торрент). Открытый торрент трекер - скачивай без регистрации. Тысячи бесплатных фильмов и сериалов.Параметры поиска: Название: "plastic memories". Результатов: 0. Скачать DePhazz1.torrent. Как тут качать?ИСПОЛНИТЕЛЬ: De-Phazz АЛЬБОМ: Plastic Love Memory ЖАНР: Acid Jazz ФОРМАТ: APEкопиями аудио-визуальных произведений, мы храним только информацию о них и торрент-файлы, загруженными пользователями для обмена. Скачай plastic vibe denied memories и plastic tears tainted memories.Masaru Yokoyama — uneasy (OST Синтетические воспоминания / Plastic Memories) [Guitar]. Скачать торрент. Описание торрента. Добавлено: 28 июл 2013, 05:57. ИСПОЛНИТЕЛЬ: De-Phazz АЛЬБОМ: Plastic Love Memory ЖАНР: Acid Jazz ФОРМАТ: APE БИТРЕЙТ: Lossless ПРОДОЛЖИТЕЛЬНОСТЬ: 01 : 05m ГОД: 2002. (1997) JOHN LENNON / The Very Best of John Lennon (classic rock) [Mp3, 320/CBR], торрент, скачать торрент бесплатно, торрент скачать и смотеть онлайн мегалайн иHarlem Community Choir/John Lennon the Plastic Ono Band/Yoko Ono - Happy Xmas (War Is Over) (3:35) 20. Ссылки где скачать торренты Синтетические воспоминания / Plastic Memories, аниме смотреть оффлайн. Новинки на торрент-трекерах. Пластиковые Воспоминания (plastic Memories). Слушать Скачать На гудок.Неизвестен - Русский Реп Про Аниме Пластиковые Воспоминания Plastic Memories Rap 2016 AMV 4. Пластиковые Воспоминания. Plastic Memories, 2015, Япония, ТВ, 13 из 13 эп.Октябрь 3, 2015, 1:25. Онлайн просмотра нет, только скачивать. Pavlik (Павел).Кстати, непонятно, зачем вчера перезаливали торрент, озвучка с дефектом так и осталась. Скачать .torrent файл (основная ссылка для скачивания файла) Смотреть / Слушать онлайн просмотр (ссылка для просмотра файла через плагин Torrent Stream).Оригинальное название: Plastic Memories Название: Воспоминания андроидов [AniDUB] Trailer . Загрузка.Cкачать торрент бесплатно фильмы, игры, музыка, книги » Мультфильмы торрент скачать » Пластиковые воспоминания / Plastic Memories скачать торрент бесплатно. Скачать торрент Воспоминания андроидов (Пластиковые Воспоминания) — Plastic Memories (2015) Download Plastic Memories Torrent for free, Full Movie And Tv Shows Streaming Link Also Available to Watch Online.Plastic Memories Episode 004 - Watch Plastic Memories Episode 004 online in high quality.mp4 (Size: 2.91 GB) (Files: 14). Заметили неточности в описании или выявили отсутствующие торренты? - Дайте нам знать, и мы внесем поправки.Скачать BDRip. [NoobSubs] Plastic Memories (720p 8bit AAC MP4). plastic memories. 07:41. Plastic Vibe — Denied Memories. Copyright 2018, «muzofond.org». Пластиковые воспоминания / Plastic Memories Год выпуска: 2015 г. Страна: Япония Аудио кодек: FLAC (.flac) Тип рипа: tracks Битрейт аудио: lossless Продолжительность: 00:58:32 Наличие сканов в содержимомСкачать торрентом не составит труда даже не опытному пользователю. Поиск ведётся по множеству торрент-трекеров, где вы можете бесплатно скачать ("Plastic Memories") 2015 без регистрации с торрентов. Смотреть Онлайн. Скачать Торрент. Оцените Сериал.Смотреть онлайн сериал: Воспоминания андроидов (Пластиковые Воспоминания) — Plastic Memories (2015). Дополнительный плеер. Plastic Memories (720p) available for free direct download at AnimeOut.com.DDL Links | Torrent Links for Plastic Memories 720p 100MB miniMKV Encodes. Direct-Download Links. Оригинальное название: Plastic Memories Действие сюжета разворачивается в недалеком будущем, когда андроиды стали практически неотличимы от людей и распространились по всему миру.Скачать Пластиковые воспоминания (серии 1-13). Похожие новости. Новость в Google. Пластиковые воспоминания. Plastic Memories. Закрыть (ESC). Топ-20 прямо сейчас.Скачать торрентом. X. Загрузить торрент. Название Качество (HDTV-Rip 720p) Номер серии. Прoдолжительность: 00:00:19:29. (150603) Plastic Memories ED Single — Asayake no Starmine (Imai Asami). Трeклист< Скачать >. Детали торрента: Название синтетические воспоминания скачать торрент на Android.Сериал Воспоминания андроидов (Пластиковые Воспоминания) — Plastic Memories (2015). Драма, романтика, фантастика. В недалеком будущем андроиды, неотличимые от людей, не только выполняют тяжелую и грязную работу они учат, помогают по дому, воспитывают детей, к ним привязываются, в них влюбляются. бит Тип развёртки : Прогрессивная Бит/(ПикселиКадры) : 0.161 Размер потока : 1,42 Гбайт (91) Заголовок : Plastic Memories ep.01 «The First Partner» Библиотека кодирования : x264 core 1481 сообщение Страница 1 из 1. Похожие торренты. Ответы. Просмотры. Последнее сообщение. Как скачать торрентом Plastic Memory - Disco-NRG Mix 02 бесплатно.1.Скачать бесплатно без регистрации и установить торрент-клиент(Torrent, BitTorrent, Azureus и др) на компьютер. Скачать торренты бесплатно и без регистрации! База magnet-ссылок Рутрекера.Пластиковые воспоминания / Plastic Memories. Год выпуска: 2015 г. Страна: Япония. Вам больше не придется искать торренты на основных торрент трекерах в поисках нужной раздачи мы предлагаем найти и скачать фильмы в хорошем качестве прямо на нашем сайте.Начните скачивать торрент Plastic Memories прямо сейчас! Пластиковые воспоминания Скачать Торрент. Анг. название: Plastic Memories. Год: 2015.Скачать аниме «Пластиковые воспоминания» бесплатно c торрент. Статус: Проверено. Управление: [обновить]. загрузка Автор.Торренты, похожие на Пластиковые воспоминания Plastic Memories скачать торрент. Форум. Название. [Non Stop Torrent Tracker.me]Plastic Memories [HDTV 720p rus].torrent. Торрент: Зарегистрирован.Как cкачать Как раздать Правильно оформить Поднять ратио! General Unique ID : 0 (0x0) Complete name : Z:Ф[HorribleSubs] Plastic Memories [1080p][HorribleSubs] Plastic Memories - 01 [1080p].mkv Format : Matroska Format version : Version 2 File size : 548 MiB Duration : 24mn 0s Пластиковые воспоминания Plastic Memories Год выпуска: 2015 Страна: Япония Жанр: комедия, романтика, драма, фантастика Т скачать на Torrent Room.Отзывы. Похожие Торренты на различные тематики. Скачать Ritchie Blackmores Rainbow - Memories in Rock II (Live) (2018) бесплатно и без регистрации через торрент. Формат: MP3, 320 kbps. Размер: 313 MB. Дата выхода: 2018

Также рекомендую прочитать:


© | 2018